#TITLE:perditus paradisus;
#SUBTITLE:shiro simfiles;
#ARTIST:IDK;
#TITLETRANSLIT:;
#SUBTITLETRANSLIT:;
#ARTISTTRANSLIT:;
#CREDIT:;
#BANNER:banner.png;
#BACKGROUND:bg.png;
#LYRICSPATH:;
#CDTITLE:;
#MUSIC:perditus_paradisus.mp3;
#OFFSET:0.000;
#SAMPLESTART:100.000;
#SAMPLELENGTH:11.960;
#SELECTABLE:YES;
#BPMS:0.000=172.000,1.000=86.000,16.000=344.019,17.500=86.000,18.000=172.000,278.000=86.000,286.000=172.001;
#STOPS:;
#BGCHANGES:;
// cache tags:
#FIRSTBEAT:1.000;
#LASTBEAT:336.000;
#SONGFILENAME:Songs/SDO 7/perditusparadisus _ iconoclasm/perditus_paradisus.sm;
#HASMUSIC:1;
#HASBANNER:1;
#MUSICLENGTH:130.063;
// end cache tags

//---------------dance-single - ----------------
#NOTES:
     dance-single:
     :
     Hard:
     33:
     1.000,1.000,1.000,0.546,1.000,1078.000,332.000,71.000,0.000,138.000:
0000
2001
0000
0200
,
0000
0020
0302
0200
,
0000
3000
2300
0000
0230
0000
0020
3000
,
2003
0000
0302
0000
0200
0000
0000
3003
,
2332
0000
0000
0000
0000
0000
0000
3113
1002
0000
0100
1000
0110
0000
1000
0100
,
2013
0000
0010
0100
0010
0000
0001
0100
3021
0000
0001
1000
0100
0000
0001
0100
,
2031
0000
0100
0010
0001
0000
0100
0010
3102
0000
1000
0010
0100
0000
1000
0010
,
1203
0000
0010
0001
1000
0000
0010
0001
1320
0000
0001
0100
1000
0000
0001
0100
,
2031
0000
0010
0100
0010
0000
0100
0010
3201
0000
1000
0001
0010
0000
1000
0001
,
1020
0000
0001
1000
0001
0000
1000
0001
2330
0000
0001
0100
0010
0000
0100
0010
,
0102
0000
0010
0100
0010
0000
0100
0010
3203
0000
0010
0001
0010
0000
1000
0001
,
1020
0000
0001
1000
0001
0000
1000
0001
2330
0000
0010
0100
0001
0000
0010
0001
,
0210
0000
0001
0010
0001
0000
0011
0000
3311
1000
0001
1000
0001
1000
0001
1000
,
0001
1000
0001
1000
0001
1000
0001
1000
0111
1000
0100
1000
0010
1000
0001
1000
,
0010
1000
0100
1000
0010
1000
0001
1000
0111
1000
0001
1000
0010
1000
0001
1000
,
0111
1000
0100
0010
0001
0010
0100
1000
0111
1000
0100
0010
1101
0010
0100
0010
,
1101
0000
0010
0000
0101
0000
1000
0000
0111
0000
1000
0000
0011
1000
0100
0010
0001
0000
0000
0000
1000
0000
0000
0000
0001
0000
0000
0000
1000
0000
0000
0000
,
0012
0000
0000
0200
0000
0000
0020
0000
0000
0000
0000
0000
1333
0100
0010
0001
0000
0000
1001
0010
0100
1000
0000
0000
,
1011
0100
0010
0001
0000
0000
0110
0001
0010
0100
0000
0000
1101
0010
0100
1000
0000
0000
0101
0010
0100
1000
0000
0000
,
1101
0010
0100
1000
0000
0000
0111
1000
0100
0010
0000
0000
0111
1000
0100
0010
0000
0000
1100
0001
0010
0100
0000
0000
,
0011
1000
0100
0010
0000
0000
1100
0001
0010
0100
0000
0000
0011
0100
1000
0001
0000
0000
1100
0010
0001
1000
0000
0000
,
0111
1000
0100
0010
0000
0000
0111
1000
0100
0010
0000
0000
0111
1000
0100
0010
0000
0000
1100
0010
0001
0010
0000
0000
,
0111
1000
0100
1000
0000
0000
1001
0010
0100
0010
0000
0000
0110
1000
0100
0010
0000
0000
0101
0010
0100
1000
0000
0000
,
1101
0010
0100
1000
0000
0000
1011
0100
1000
0001
0000
0000
1101
0010
0100
1000
0000
0000
0011
0100
1000
0100
0000
0000
,
1110
0001
0010
0001
0000
0000
0110
1000
0001
0100
0000
0000
1101
0010
0100
0010
0000
0000
1100
0010
0001
0010
0000
0000
,
1001
0100
0011
0100
1011
0100
0001
0010
0101
1000
0100
0010
1001
0000
0000
0000
,
1010
0001
0010
0100
1001
0000
0000
0000
1001
0100
0010
0001
1010
0100
1000
0100
,
1001
0010
0100
1000
0101
0010
0001
0010
1101
0010
0100
1000
0101
0000
0000
0000
,
1010
0100
0010
1000
0101
0000
0000
0000
1001
0010
0100
1000
0011
0100
1000
0001
,
0110
1000
0100
0010
1001
0100
0010
0001
1010
0100
0010
0001
1100
0000
0000
0000
,
0101
0010
0100
1000
0011
0100
0010
0001
1010
0100
0010
1000
0101
1000
0010
0001
,
1100
0001
0010
0100
1010
0001
0010
0001
1100
0010
0001
0010
0101
0000
0000
0000
,
0101
1000
0100
1000
0011
0000
0000
0000
1001
0010
0100
0010
1001
0100
0010
0001
,
0110
1000
0100
0001
0110
1000
0100
0010
1001
0000
0000
1100
1100
0010
0001
0010
,
1100
0010
0100
1001
1001
0000
0000
0000
1100
0010
0100
0011
0011
1000
0100
0001
,
0110
1000
0001
1010
1010
0001
0100
0010
1001
0100
0010
1001
1001
0000
0000
0000
,
0101
0010
0100
1010
1010
0100
0010
1000
0101
0010
0100
1010
1010
0100
0001
1000
,
0011
0100
0010
1100
1100
0001
0010
0001
1100
0010
1000
0011
0011
0000
0000
0000
,
0101
1000
0010
1100
1100
0010
0100
0001
1010
0100
1000
0101
0101
0010
0001
1000
,
0101
0010
0100
0011
0011
0100
1000
0100
1001
0100
0010
1001
1001
0000
0000
0000
,
0101
0010
1000
0110
0110
0000
0000
0100
1010
0001
0010
0100
1001
0010
0001
0010
,
1100
0001
1000
0100
0011
1000
0100
0010
2101
0000
0100
0010
0001
0000
0010
0001
,
0110
0000
0000
0000
0000
0000
0001
0000
0010
0000
0100
0000
3011
0000
0000
0000
0000
0000
0001
0000
0000
0100
0000
0000
1010
0000
0000
0000
0000
0000
0100
0000
0000
0010
0000
0000
1001
0000
0000
0000
0000
0000
0100
0000
0000
0010
0000
0000
,
1001
0000
0100
0001
1010
0000
0100
0001
1100
0000
0010
0100
0011
0000
1000
0010
,
0101
0000
1001
0000
1001
0000
0101
0000
1001
0010
0100
0010
0100
0010
0100
0010
,
0100
1000
0001
0100
0010
1000
0001
0100
1002
0000
0100
0000
1010
0000
1000
0000
,
0110
0100
1010
0100
2113
0001
0101
0010
,
0011
0100
0011
0010
3211
0001
1001
0010
,
1001
1000
0011
0010
1312
0100
0110
1000
,
1010
0100
1010
0100
1123
0100
1001
0100
,
0101
1000
0101
0001
1231
0010
1001
0010
,
1001
0010
1010
0001
2311
0010
0101
0010
,
0011
0000
0000
0000
0000
0000
0100
0000
0000
0000
0000
0000
3001
0000
0010
0000
0100
0000
1000
0000
0000
0010
0000
0000
1001
0000
0000
0010
0000
0000
0100
0000
0000
1000
0000
0000
0101
0000
0000
0010
0000
0000
0001
0000
0000
1000
0000
0000
,
0011
0100
0011
1000
0011
0100
1010
0001
1100
0010
1000
0100
0021
0000
0100
0000
,
1001
0000
1000
0100
1031
0100
0010
0001
1010
0100
0001
1000
0120
0000
0000
0001
,
1130
0010
0100
0010
0101
1000
0100
0010
1001
0010
0100
0010
1002
0000
0000
0000
,
1010
0000
0100
1000
0113
1000
0001
0100
0011
1000
0001
0100
1010
0001
1000
0100
,
0011
1000
0100
0010
1100
0010
0001
0100
1001
0010
0100
0001
0200
0000
0000
0000
,
0000
1300
0011
1000
0011
1000
0011
1000
0101
0010
0100
0010
0201
0000
0000
0000
,
0000
0301
1010
0001
1010
0001
1010
0001
0110
1000
0100
0010
0002
0000
0000
0000
,
0000
0000
0000
1003
0000
0000
0011
0000
0000
1000
0000
0000
0011
0000
0000
1000
0000
0000
0011
0000
0000
1000
0000
0000
0001
0000
0010
0000
0100
0000
1000
0000
0001
0000
0010
0000
0100
0000
1000
0000
0001
0000
0010
0000
0000
1000
0000
0000
,
0001
0100
0010
1000
0001
0100
0010
1000
0111
0000
1000
1000
0110
0000
0001
0001
,
0110
0000
0100
0100
1010
0000
0010
0010
0101
0000
1000
0100
0011
0000
0001
0010
,
1100
0000
0010
0100
1010
0000
0100
0010
1101
0000
0010
0010
0101
0000
1000
1000
,
0110
0000
0001
0001
0110
0000
0100
0100
1010
0000
0001
0010
1100
0000
1000
0100
,
0011
0000
0010
0100
1001
0000
0100
0010
1101
0000
0101
0010
0101
0000
1010
0100
,
1010
0000
0101
1000
0101
0000
0011
1000
0011
0000
1100
0001
1100
0000
0110
0001
,
0110
0000
0011
1000
0011
0000
0110
0001
1110
0000
0101
0010
1010
0000
0101
1000
,
1010
0000
0101
0010
1010
0000
0101
0001
1010
0000
0101
0010
1100
0000
0011
0100
,
1100
0000
0000
0000
0000
0000
0011
0000
0000
0010
0000
0000
1100
0000
0000
0000
0000
0000
0001
0000
0010
0000
0100
0000
2002
0000
0000
0000
0000
0000
0000
0000
0000
0000
0000
0000
0200
0000
0000
0000
0000
0000
0000
0000
0000
0000
0000
0000
,
0023
3002
2300
0233
,
0302
0000
3200
0000
0323
1100
1102
1100
1133
0001
0010
0100
1001
0010
0100
0010
,
1001
0100
0010
0001
1010
0001
0010
0100
1001
0010
0100
0010
1001
0010
0100
1000
,
0101
0010
0100
1000
0101
0010
0100
1000
0101
0010
0001
1000
0101
0010
0001
0010
,
0101
1000
0001
0100
0011
1000
0001
0100
1010
0001
1000
0010
1100
0010
0001
1000
,
0101
0000
0010
0000
0001
0000
0010
0000
1001
0010
0100
1000
0001
0010
0100
1000
0002
0000
0010
0000
1100
0000
0010
0000
2103
0000
0010
0000
0001
0000
0010
0000
,
3101
0010
0100
1000
0110
0001
1100
0010
1002
0010
0100
1000
0213
1000
0010
0001
,
1310
0001
0110
0001
1100
0010
1001
0100
2010
0100
0001
0100
3012
0100
1000
0010
,
1103
0010
0101
1000
0110
0001
1010
0100
0021
0100
1000
0100
1230
0001
0010
0001
,
1310
0001
1010
0100
1011
0100
0011
0100
1012
0100
0010
1000
0123
0001
0100
0001
,
1130
0001
0010
0100
1001
0010
1100
0001
1020
0100
0001
1000
0231
0010
0001
1000
,
0311
0100
1010
0001
0010
0100
1001
0010
1100
0001
0110
1000
0111
1000
0101
0010
,
0101
1000
0110
0001
1100
0010
0101
1000
0011
1100
0011
1100
0011
1100
0011
1100
,
0001
0010
0100
1000
0001
0010
0100
1000
0001
0010
0100
1000
0001
0010
0100
1000
0022
0000
0000
0000
0000
0000
0000
0000
0000
0000
0000
0000
0000
0000
0000
0000
,
0033
0000
0000
0000
;
